OS-sw ver.: CCBot/2.0 (https://commoncrawl.org/faq/)
Login date: 09 Apr 20 - 16:17:53
IP Address: 3.235.29.190Cursore

Registrati
Editare files video con linux è molto semplice, basta utilizzare l'utility avconv.

Partiamo dalla lista dei codecs disponibili sulla macchina digitando:

avconv -codecs



Con l'opzione -i specifico il file da convertire ed ottengo un pò di info, tipo che il file indicato nell'esempio è un matroska/webm ed ho 1 traccia video 1 audio ita e 2 stream di sosttotoli:

avconv -i The\ rolling\ stones\ -\ crossfire\ hurricane.webm
avconv version 9.18-6:9.18-0ubuntu0.14.04.1, Copyright (c) 2000-2014 the Libav developers
  built on Mar 16 2015 13:19:10 with gcc 4.8 (Ubuntu 4.8.2-19ubuntu1)
Guessed Channel Layout for  Input Stream #0.1 : stereo
Input #0, matroska,webm, from 'The rolling stones - crossfire hurricane.webm':
  Metadata:
    DATE_BROADCASTED: 2016-07-06 23:16:31
    ORIGINAL_MEDIA_TYPE: TV
  Duration: 01:52:21.28, start: 0.000000, bitrate: N/A
    Stream #0.0(eng): Video: mpeg2video (Main), yuv420p, 720x576 [PAR 64:45 DAR 16:9], 10000 kb/s, 25 fps, 25 tbr, 1k tbn, 50 tbc (default)
    Stream #0.1(ita): Audio: mp2, 48000 Hz, stereo, s16p, 192 kb/s (default)
    Stream #0.2(ita): Subtitle: [0][0][0][0] / 0x0000 (default)
    Stream #0.3(eng): Subtitle: [0][0][0][0] / 0x0000 (default)
At least one output file must be specified



Nell'esempio sotto, voglio tagliare un video partendo dal minuto 2:43 per un'ora e 1:50 minuti, lasciando inalterato l'audio (-c:a copy) i sottotitoli (-c:s copy) e il video (-c:v copy):

avconv -i Deep\ Purple\ -\ made\ in\ japan.webm -ss 00:02:43 -t 01:01:50 -c:a copy -c:s copy -c:v copy Deep\ Purple\ -\ made\ in\ japan_cut.mkv

Visite totali139851
Questo sito web usa i cookies per gestire alcune funzionalità, quali navigazione, autenticazione, commenti, etc. Utilizzando il nostro sito web, accetti l'utilizzo dei cookies.